+ ShareSpark.net »  :::: Bollywood Zone » Indian PC Videos
|- Welcome Back (2015) Bollywood Movie Music Album 1080p BluRay x264 DTS-ES 5.1 By ~MaLiK ZEE~


Mastercard 10% Off
  • Welcome Back (2015) Bollywood Movie Music Album 1080p BluRay x264 DTS-ES 5.1 By ~MaLiK ZEE~ 5 1
Currently:  

Welcome Back (2015) Bollywood Movie Music Album 1080p BluRay x264 DTS-ES 5.1 By ~MaLiK ZEE~

0 Members and 1 Guest are viewing this topic.

September 28, 2018, 02:15:32 AM
Welcome Back (2015) Bollywood Movie Music Album 1080p BluRay x264 DTS-ES 5.1 By ~MaLiK ZEE~


~♥ BollyWooD MoviE ♥~
(Welcome Back 2015)

Quote

Specs ♪♫
General
Format                      : Matroska
Format version              : Version 4 / Version 2
File size                   : 1.80 GB
Overall bit rate            : 9 932 kb/s
Encoded date                : UTC 2018-09-27 00:24:17
Writing application         : mkvmerge v25.0.0 ('Prog Noir') 64-bit
Writing library             : libebml v1.3.6 + libmatroska v1.

♪ Video ♪
ID                          : 1
Format                      : AVC
Format/Info                 : Advanced Video Codec
Format profile              : [email protected]
Format settings             : CABAC / 5 Ref Frames
Format settings, CABAC      : Yes
Format settings, ReFrames   : 5 frames
Codec ID                    : V_MPEG4/ISO/AVC
Bit rate                    : 8 420 kb/s
Width                       : 1 920 pixels
Height                      : 816 pixels
Display aspect ratio        : 2.35:1
Frame rate mode             : Constant
Frame rate                  : 24.000 FPS
Color space                 : YUV
Chroma subsampling          : 4:2:0
Bit depth                   : 8 bits
Scan type                   : Progressive
Bits/(Pixel*Frame)          : 0.224
Stream size                 : 153 MiB (85%)
Language                    : English
Default                     : Yes
Forced                      : No
Color range                 : Limited
Color primaries             : BT.709
Transfer characteristics    : BT.709
Matrix coefficients         : BT.709

♫ Audio ♫
ID                          : 2
Format                      : DTS
Format/Info                 : Digital Theater Systems
Format profile              : ES Matrix / Core
Codec ID                    : A_DTS
Bit rate mode               : Constant
Bit rate                    : 1 509 kb/s
Channel(s)                  : 7 channels / 6 channels
Channel positions           : Front: L C R, Side: L R, Back: C, LFE / Front: L C R, Side: L R, LFE
Sampling rate               : 48.0 kHz
Frame rate                  : 93.750 FPS (512 SPF)
Bit depth                   : 24 bits
Compression mode            : Lossy
Delay relative to video     : 4 ms
Stream size                 : 27.3 MiB (15%)
Title                       : By~MaLiK ZEE~
Language                    : Hindi
Default                     : Yes
Forced                      : No

English & Arabic Subtitles : Yes
Chapters : Yes

Ripped By ~MaLiK ZEE~

 :ss:


























 :download:

Google Drive

Quote
01-Meet Me Daily Baby [By ~MaLiK ZEE~]

02-Twenty Twenty [By ~MaLiK ZEE~]

03-Time Lagaye Kaiko [By ~MaLiK ZEE~]

04-Tutti Bole Wedding Di [By ~MaLiK ZEE~]

05-Nas Nas Mein [By ~MaLiK ZEE~]

06-Welcome Back End Roll [By ~MaLiK ZEE~]









Share this topic on FacebookShare this topic on GoogleShare this topic on MySpaceShare this topic on TwitterShare this topic on Yahoo

« Last Edit: September 29, 2018, 01:16:15 AM by 【M】【A】【L】【I】【K】 【Z】【E】【E】 »


Thanks given by:


September 29, 2018, 01:19:39 AM
Reply #1
« Last Edit: September 29, 2018, 01:20:12 AM by 【M】【A】【L】【I】【K】 【Z】【E】【E】 »

September 29, 2018, 10:26:20 AM
Reply #2
  • Semi Newbie
  • **
  • Thank You: 0
  • Reputation: 0
  • Activity:
    11.2%
  • Country: pk
  • Posts: 47
  • Topics: 0
  • Join Date: Feb 2017
  • ShareSpark Member

Tags:
 

Related Topics





Back to top