+ ShareSpark.net »  :::: Bollywood Zone » Indian PC Videos
|- Dostana (2008) Bollywood Movie Music Album 1080p BluRay x264 DTS-HDMA 5.1 By ~MaLiK ZEE~


100% Recharge Offer

Dostana (2008) Bollywood Movie Music Album 1080p BluRay x264 DTS-HDMA 5.1 By ~MaLiK ZEE~

0 Members and 1 Guest are viewing this topic.

September 28, 2018, 03:15:07 AM
Dostana (2008) Bollywood Movie Music Album 1080p BluRay x264 DTS-HDMA 5.1 By ~MaLiK ZEE~


~♥ BollyWooD MoviE ♥~
(Dostana 2008)

Quote

Specs ♪♫
General
Format                      : Matroska
Format version              : Version 4 / Version 2
File size                   : 3.80 GB
Overall bit rate            : 19.9 Mb/s
Encoded date                : UTC 2018-09-25 15:30:13
Writing application         : mkvmerge v25.0.0 ('Prog Noir') 64-bit
Writing library             : libebml v1.3.6 + libmatroska v1.4.9

♪ Video ♪
ID                          : 1
Format                      : AVC
Format/Info                 : Advanced Video Codec
Format profile              : [email protected]
Format settings             : CABAC / 4 Ref Frames
Format settings, CABAC      : Yes
Format settings, ReFrames   : 4 frames
Codec ID                    : V_MPEG4/ISO/AVC
Bit rate                    : 18.4 Mb/s
Width                       : 1 920 pixels
Height                      : 816 pixels
Display aspect ratio        : 2.35:1
Frame rate mode             : Constant
Frame rate                  : 24.000 FPS
Color space                 : YUV
Chroma subsampling          : 4:2:0
Bit depth                   : 8 bits
Scan type                   : Progressive
Bits/(Pixel*Frame)          : 0.488
Stream size                 : 575 MiB (92%)
Language                    : English
Default                     : Yes
Forced                      : No

♫ Audio ♫
ID                          : 2
Format                      : DTS
Format/Info                 : Digital Theater Systems
Codec ID                    : A_DTS
Bit rate mode               : Constant
Bit rate                    : 1 509 kb/s
Channel(s)                  : 6 channels
Channel positions           : Front: L C R, Side: L R, LFE
Sampling rate               : 48.0 kHz
Frame rate                  : 93.750 FPS (512 SPF)
Bit depth                   : 24 bits
Compression mode            : Lossy
Delay relative to video     : 1 ms
Stream size                 : 47.3 MiB (8%)
Title                       : By ~MaLiK ZEE~
Language                    : Hindi
Default                     : Yes
Forced                      : No

English Subtitles : Yes
Chapters : Yes

Ripped By ~MaLiK ZEE~

 :ss:

























 :download:

Google Drive

Quote
01-Shut Up & Bounce [By ~MaLiK ZEE~]

02-Jaane Kyun [By ~MaLiK ZEE~]

03-Jiger Main Badi Aag Hai [By ~MaLiK ZEE~]

04-Maa Da Laadla [By ~MaLiK ZEE~]

05-Khabar Nahi [By ~MaLiK ZEE~]

06-Khabar Nahi English Version [By ~MaLiK ZEE~]

07-Desi Girl [By ~MaLiK ZEE~]

08-Kuch Kum [By ~MaLiK ZEE~]

09-Maa Da Laadla End Roll [By ~MaLiK ZEE~]





Share this topic on FacebookShare this topic on GoogleShare this topic on MySpaceShare this topic on TwitterShare this topic on Yahoo



Thanks given by:


Tags:
 

Related Topics





Back to top