+ ShareSpark.net »  :::: Bollywood Zone » Indian PC Videos
|- Tumsa Nahin Dekha (2004) Bollywood Movie All Video Music Album 1080p WEB-DL H264 DDP 5.1 By ~MaLiK Z


HDFC 10% Off
  • Tumsa Nahin Dekha (2004) Bollywood Movie All Video Music Album 1080p WEB-DL H264 DDP 5.1 By ~MaLiK Z 5 1
Currently:  

Tumsa Nahin Dekha (2004) Bollywood Movie All Video Music Album 1080p WEB-DL H264 DDP 5.1 By ~MaLiK Z

0 Members and 1 Guest are viewing this topic.

October 02, 2018, 12:10:20 AM
Tumsa Nahin Dekha (2004) Bollywood Movie All Video Music Album 1080p WEB-DL H264 DDP 5.1 By ~MaLiK ZEE~


~♥ BollyWooD MoviE ♥~
(Tumsa Nahin Dekha 2004)

Quote

Specs ♪♫
General
Format                      : Matroska
Format version              : Version 4 / Version 2
File size                   : 2.13 GB
Overall bit rate mode       : Variable
Overall bit rate            : 14.7 Mb/s
Encoded date                : UTC 2018-10-01 14:32:46
Writing application         : mkvmerge v25.0.0 ('Prog Noir') 64-bit
Writing library             : libebml v1.3.6 + libmatroska v1.4.9

♪ Video ♪
ID                          : 1
Format                      : AVC
Format/Info                 : Advanced Video Codec
Format profile              : [email protected]
Format settings             : CABAC / 4 Ref Frames
Format settings, CABAC      : Yes
Format settings, ReFrames   : 4 frames
Codec ID                    : V_MPEG4/ISO/AVC
Bit rate mode               : Variable
Bit rate                    : 14.0 Mb/s
Maximum bit rate            : 15.0 Mb/s
Width                       : 1 920 pixels
Height                      : 816 pixels
Display aspect ratio        : 2.35:1
Original display aspect rat : 2.35:1
Frame rate mode             : Constant
Frame rate                  : 24.000 FPS
Color space                 : YUV
Chroma subsampling          : 4:2:0
Bit depth                   : 8 bits
Scan type                   : Progressive
Bits/(Pixel*Frame)          : 0.373
Stream size                 : 517 MiB (96%)
Language                    : English
Default                     : Yes
Forced                      : No
Color range                 : Limited
Color primaries             : BT.709
Transfer characteristics    : BT.709
Matrix coefficients         : BT.709

♫ Audio ♫
ID                          : 2
Format                      : E-AC-3
Format/Info                 : Enhanced Audio Coding 3
Codec ID                    : A_EAC3
Bit rate mode               : Constant
Bit rate                    : 640 kb/s
Channel(s)                  : 6 channels
Channel positions           : Front: L C R, Side: L R, LFE
Sampling rate               : 48.0 kHz
Frame rate                  : 187.500 FPS (256 SPF)
Compression mode            : Lossy
Delay relative to video     : -68 ms
Stream size                 : 23.6 MiB (4%)
Title                       : By ~MaLiK ZEE~
Language                    : Hindi
Service kind                : Complete Main
Default                     : Yes
Forced                      : No

English Subtitles : No
Chapters : No

Ripped By ~MaLiK ZEE~

 :ss:






























 :download:

Google Drive

Quote
01-Mujhe Tumse Mohabbat Hai [By ~MaLiK ZEE~]

02-Maine Soch Liya [By ~MaLiK ZEE~]

03-Dhanak Ka Rang [By ~MaLiK ZEE~]

04-Woh Humse Khafa Hain [By ~MaLiK ZEE~]

05-Yeh Dhuaan Dhuaan [By ~MaLiK ZEE~]

06-Bheed Mein [By ~MaLiK ZEE~]

07-Maine Soch Liya End Roll [By ~MaLiK ZEE~]





Share this topic on FacebookShare this topic on GoogleShare this topic on MySpaceShare this topic on TwitterShare this topic on Yahoo



Thanks given by:


October 02, 2018, 04:19:42 AM
Reply #1
  • Team SSX
  • Legend Member
  • ***
  • Thank You: 2725
  • Reputation: 737
  • Activity:
    100%
  • Country: np
  • Posts: 1814
  • Topics: 1050
  • Join Date: Jul 2016
  • Love Forever !!

October 02, 2018, 09:21:15 AM
Reply #2
  • Semi Newbie
  • **
  • Thank You: 1
  • Reputation: 0
  • Activity:
    3.2%
  • Country: in
  • Posts: 23
  • Topics: 1
  • Join Date: Sep 2015
  • ShareSpark Member
 :thank: :10on10: :bravo: and please upload videos of Footpath 2002, Raaz 2002 & kasoor 2002

October 02, 2018, 12:35:49 PM
Reply #3
  • Senior Member
  • ***
  • Thank You: 0
  • Reputation: 1
  • Activity:
    3.4%
  • Country: in
  • Posts: 206
  • Topics: 0
  • Join Date: Oct 2014
  • ShareSpark Member

Tags:
 

Related Topics





Back to top