+ ShareSpark.net »  :::: Bollywood Zone » Indian PC Videos
|- Footpath (2003) Bollywood Movie All Video Music Album 1080p WEB-DL H264 DDP 5.1 By ~MaLiK ZEE~


Mastercard 10% Off
  • Footpath (2003) Bollywood Movie All Video Music Album 1080p WEB-DL H264 DDP 5.1 By ~MaLiK ZEE~ 5 1
Currently:  

Footpath (2003) Bollywood Movie All Video Music Album 1080p WEB-DL H264 DDP 5.1 By ~MaLiK ZEE~

0 Members and 1 Guest are viewing this topic.

October 04, 2018, 12:13:11 AM
Footpath (2003) Bollywood Movie All Video Music Album 1080p WEB-DL H264 DDP 5.1 By ~MaLiK ZEE~


~♥ BollyWooD MoviE ♥~
(Footpath 2003)

Quote

Specs ♪♫
General
Format                      : Matroska
Format version              : Version 4 / Version 2
File size                   : 1.74 GB
Duration                    : 4 min 50 s
Overall bit rate mode       : Variable
Overall bit rate            : 13.0 Mb/s
Encoded date                : UTC 2018-10-03 06:59:17
Writing application         : mkvmerge v25.0.0 ('Prog Noir') 64-bit
Writing library             : libebml v1.3.6 + libmatroska v1.4.9

♪ Video ♪
ID                          : 1
Format                      : AVC
Format/Info                 : Advanced Video Codec
Format profile              : [email protected]
Format settings             : CABAC / 4 Ref Frames
Format settings, CABAC      : Yes
Format settings, ReFrames   : 4 frames
Codec ID                    : V_MPEG4/ISO/AVC
Bit rate mode               : Variable
Bit rate                    : 12.4 Mb/s
Maximum bit rate            : 15.0 Mb/s
Width                       : 1 920 pixels
Height                      : 816 pixels
Display aspect ratio        : 2.35:1
Original display aspect rat : 2.35:1
Frame rate mode             : Constant
Frame rate                  : 24.000 FPS
Color space                 : YUV
Chroma subsampling          : 4:2:0
Bit depth                   : 8 bits
Scan type                   : Progressive
Bits/(Pixel*Frame)          : 0.329
Stream size                 : 428 MiB (95%)
Language                    : English
Default                     : Yes
Forced                      : No
Color range                 : Limited
Color primaries             : BT.709
Transfer characteristics    : BT.709
Matrix coefficients         : BT.709

♫ Audio ♫
ID                          : 2
Format                      : E-AC-3
Format/Info                 : Enhanced Audio Coding 3
Codec ID                    : A_EAC3
Bit rate mode               : Constant
Bit rate                    : 640 kb/s
Channel(s)                  : 6 channels
Channel positions           : Front: L C R, Side: L R, LFE
Sampling rate               : 48.0 kHz
Frame rate                  : 187.500 FPS (256 SPF)
Compression mode            : Lossy
Delay relative to video     : -110 ms
Stream size                 : 22.2 MiB (5%)
Title                       : By ~MaLiK ZEE~
Language                    : Hindi
Service kind                : Complete Main
Default                     : Yes
Forced                      : No

English Subtitles : No
Chapters : No

Ripped By ~MaLiK ZEE~

 :ss:





























 :download:

Google Drive

Quote
01-Maahi Aa Ve Tum Pe Dil [By ~MaLiK ZEE~]

02-Saari Raat Teri Yaad [By ~MaLiK ZEE~]

03-Kitna Pyaara Hai Sama [By ~MaLiK ZEE~]

04-Zara Dekh Mera Deewanapan [By ~MaLiK ZEE~]

05-Dost Milte Hain 1 [By ~MaLiK ZEE~]

06-Dost Milte Hain 2 [By ~MaLiK ZEE~]







Share this topic on FacebookShare this topic on GoogleShare this topic on MySpaceShare this topic on TwitterShare this topic on Yahoo



Thanks given by:


October 04, 2018, 01:48:21 AM
Reply #1
  • Semi Newbie
  • **
  • Thank You: 0
  • Reputation: 0
  • Activity:
    1%
  • Country: in
  • Posts: 5
  • Topics: 0
  • Join Date: Aug 2018
  • ShareSpark Member

October 04, 2018, 04:19:34 AM
Reply #2
  • Team SSX
  • Legend Member
  • ***
  • Thank You: 2725
  • Reputation: 737
  • Activity:
    100%
  • Country: np
  • Posts: 1814
  • Topics: 1050
  • Join Date: Jul 2016
  • Love Forever !!

October 04, 2018, 08:45:31 AM
Reply #3
  • Semi Newbie
  • **
  • Thank You: 1
  • Reputation: 0
  • Activity:
    3.2%
  • Country: in
  • Posts: 23
  • Topics: 1
  • Join Date: Sep 2015
  • ShareSpark Member
 :thank: :wow: :10on10: :bravo: many many thank for this and bro please upload kasoor movie videos songs and thanks in advance 2

October 04, 2018, 12:33:55 PM
Reply #4
  • Senior Member
  • ***
  • Thank You: 0
  • Reputation: 1
  • Activity:
    3.4%
  • Country: in
  • Posts: 206
  • Topics: 0
  • Join Date: Oct 2014
  • ShareSpark Member
Thanks for Uploading this wonderful unforgettable Memories From This Great Movie Video Songs....

 :rep:    :10on10:     :thank: 


October 04, 2018, 01:01:09 PM
Reply #5
  • Global Mod (Inactive)
  • Elite Forces
  • *****
  • Thank You: 485
  • Reputation: 147
  • Activity:
    2.4%
  • Posts: 1374
  • Topics: 1069
  • Join Date: Dec 2012
  • king of old movies

Tags:
 

Related Topics





Back to top