+ ShareSpark.net »  :::: Bollywood Zone » Indian PC Videos
|- Sonu Ke Titu Ki Sweety (2018) Bollywood Movie All Video Music Album 720p Blu-ray x264 DTS-HDMA 5.1 B


100% DTH Offer

Sonu Ke Titu Ki Sweety (2018) Bollywood Movie All Video Music Album 720p Blu-ray x264 DTS-HDMA 5.1 B

0 Members and 1 Guest are viewing this topic.

October 05, 2018, 02:08:31 AM
Sonu Ke Titu Ki Sweety (2018) Bollywood Movie All Video Music Album 720p Blu-ray x264 DTS-HDMA 5.1 By ~MaLiK ZEE~


~♥ BollyWooD MoviE ♥~
(Sonu Ke Titu Ki Sweety 2018)

Quote

Specs ♪♫
General
Format                      : Matroska
Format version              : Version 4 / Version 2
File size                   : 2.21 GB
Overall bit rate            : 12.0 Mb/s
Encoded date                : UTC 2018-10-04 15:06:07
Writing application         : mkvmerge v25.0.0 ('Prog Noir') 64-bit
Writing library             : libebml v1.3.6 + libmatroska v1.4.9

♪ Video ♪
ID                          : 1
Format                      : AVC
Format/Info                 : Advanced Video Codec
Format profile              : [email protected]
Format settings             : CABAC / 5 Ref Frames
Format settings, CABAC      : Yes
Format settings, ReFrames   : 5 frames
Codec ID                    : V_MPEG4/ISO/AVC
Bit rate                    : 5 478 kb/s
Width                       : 1 280 pixels
Height                      : 720 pixels
Display aspect ratio        : 2.40:1
Frame rate mode             : Constant
Frame rate                  : 24.000 FPS
Color space                 : YUV
Chroma subsampling          : 4:2:0
Bit depth                   : 8 bits
Scan type                   : Progressive
Bits/(Pixel*Frame)          : 0.248
Stream size                 : 127 MiB (46%)
Language                    : English
Default                     : Yes
Forced                      : No
Color range                 : Limited
Color primaries             : BT.709
Transfer characteristics    : BT.709
Matrix coefficients         : BT.709

♫ Audio ♫

Audio #1
ID                          : 2
Format                      : DTS
Format/Info                 : Digital Theater Systems
Format profile              : MA / Core
Codec ID                    : A_DTS
Duration                    : 3 min 14 s
Bit rate mode               : Variable / Constant
Bit rate                    : 5 835 kb/s / 1 509 kb/s
Channel(s)                  : 6 channels
Channel positions           : Front: L C R, Side: L R, LFE
Sampling rate               : 48.0 kHz
Frame rate                  : 93.750 FPS (512 SPF)
Bit depth                   : 24 bits
Compression mode            : Lossless / Lossy
Delay relative to video     : -15 ms
Stream size                 : 135 MiB (49%)
Title                       : By~MaLiK ZEE~ 1
Language                    : Hindi
Default                     : Yes
Forced                      : No

Audio #2
ID                          : 3
Format                      : AC-3
Format/Info                 : Audio Coding 3
Codec ID                    : A_AC3
Bit rate mode               : Constant
Bit rate                    : 640 kb/s
Channel(s)                  : 6 channels
Channel positions           : Front: L C R, Side: L R, LFE
Sampling rate               : 48.0 kHz
Frame rate                  : 31.250 FPS (1536 SPF)
Bit depth                   : 16 bits
Compression mode            : Lossy
Delay relative to video     : 6 ms
Stream size                 : 14.8 MiB (5%)
Title                       : By~MaLiK ZEE~ 2
Language                    : Hindi
Service kind                : Complete Main
Default                     : No
Forced                      : No

English Subtitles : Yes
Chapters : Yes

Ripped By ~MaLiK ZEE~

 :ss:



















 :download:

Google Drive

Quote
01-Bom Diggy Diggy [By ~MaLiK ZEE~]

02-Subah Subah [By ~MaLiK ZEE~]

03-Dil Chori [By ~MaLiK ZEE~]

04-Sweety Slowly Slowly [By ~MaLiK ZEE~]

05-Kaun Nachdi [By ~MaLiK ZEE~]

06-Lakk Mera Hit [By ~MaLiK ZEE~]

07-Tera Yaar Hoon Mein [By ~MaLiK ZEE~]

08-Chhote Chhote Peg End Roll [By ~MaLiK ZEE~]




Share this topic on FacebookShare this topic on GoogleShare this topic on MySpaceShare this topic on TwitterShare this topic on Yahoo




Tags:
 

Related Topics





Back to top