+ ShareSpark.net »  :::: Bollywood Zone » Indian PC Videos
|- ABCD 2 (2015) Bollywood Movie All Video Music Album Blu-ray AVC TrueHD ATMOS 7.1 By ~MaLiK ZEE~


One Plus 6

ABCD 2 (2015) Bollywood Movie All Video Music Album Blu-ray AVC TrueHD ATMOS 7.1 By ~MaLiK ZEE~

0 Members and 1 Guest are viewing this topic.

October 05, 2018, 09:23:20 AM
ABCD 2 (2015) Bollywood Movie All Video Music Album Blu-ray AVC TrueHD ATMOS 7.1 By ~MaLiK ZEE~


~♥ BollyWooD MoviE ♥~
(ABCD 2 2015)

Quote

Specs ♪♫
General
Format                      : Matroska
Format version              : Version 4 / Version 2
File size                   : 15.1 GB
Overall bit rate mode       : Variable
Overall bit rate            : 32.8 Mb/s
Encoded date                : UTC 2018-10-03 07:26:55
Writing application         : mkvmerge v25.0.0 ('Prog Noir') 64-bit
Writing library             : libebml v1.3.6 + libmatroska v1.4.9

♪ Video ♪
ID                          : 1
Format                      : AVC
Format/Info                 : Advanced Video Codec
Format profile              : [email protected]
Format settings             : CABAC / 4 Ref Frames
Format settings, CABAC      : Yes
Format settings, ReFrames   : 4 frames
Codec ID                    : V_MPEG4/ISO/AVC
Bit rate mode               : Variable
Bit rate                    : 26.1 Mb/s
Maximum bit rate            : 34.0 Mb/s
Width                       : 1 920 pixels
Height                      : 1 080 pixels
Display aspect ratio        : 16:9
Frame rate mode             : Constant
Frame rate                  : 23.976 (23976/1000) FPS
Original frame rate         : 24.000 FPS
Color space                 : YUV
Chroma subsampling          : 4:2:0
Bit depth                   : 8 bits
Scan type                   : Progressive
Bits/(Pixel*Frame)          : 0.525
Stream size                 : 3.69 GiB (80%)
Language                    : English
Default                     : Yes
Forced                      : No

♫ Audio ♫

Audio #1
ID                          : 2
Format                      : TrueHD
Format profile              : TrueHD+Atmos / TrueHD
Codec ID                    : A_TRUEHD
Bit rate mode               : Variable
Bit rate                    : 6 015 kb/s
Maximum bit rate            : 7 911 kb/s
Channel(s)                  : Object Based / 8 channels
Channel positions           : Object Based / Front: L C R, Side: L R, Back: L R, LFE
Sampling rate               :  / 48.0 kHz
Frame rate                  : 1 200.000 FPS (40 SPF)
Compression mode            : Lossless
Stream size                 : 870 MiB (18%)
Title                       : By~MaLiK ZEE~ 1
Language                    : Hindi
Default                     : Yes
Forced                      : No

Audio #2
ID                          : 5
Format                      : AC-3
Format/Info                 : Audio Coding 3
Codec ID                    : A_AC3
Bit rate mode               : Constant
Bit rate                    : 640 kb/s
Channel(s)                  : 6 channels
Channel positions           : Front: L C R, Side: L R, LFE
Sampling rate               : 48.0 kHz
Frame rate                  : 31.250 FPS (1536 SPF)
Bit depth                   : 16 bits
Compression mode            : Lossy
Delay relative to video     : 24 ms
Stream size                 : 92.5 MiB (2%)
Title                       : By~MaLiK ZEE~ 2
Language                    : Hindi
Service kind                : Complete Main
Default                     : No
Forced                      : No

English & Chinese Subtitles : Yes
Chapters : Yes

Ripped By ~MaLiK ZEE~

 :ss:































 :download:

Google Drive

Quote
01-Abcd 2 Dance Collections [By ~MaLiK ZEE~]

02-Chunar [By ~MaLiK ZEE~]

03-Happy Hour [By ~MaLiK ZEE~]

04-Sun Saathiya [By ~MaLiK ZEE~]

05-Bezubaan Phir Se [By ~MaLiK ZEE~]

06-Naach Meri Jaan [By ~MaLiK ZEE~]

07-Tatto [By ~MaLiK ZEE~]

08-Hold My Hand [By ~MaLiK ZEE~]

09-Hey Ganraya [By ~MaLiK ZEE~]

10-Ek Tera Naam [By ~MaLiK ZEE~]

11-Vande Matram End Roll [By ~MaLiK ZEE~]

12-Chunar End Roll [By ~MaLiK ZEE~]











Share this topic on FacebookShare this topic on GoogleShare this topic on MySpaceShare this topic on TwitterShare this topic on Yahoo

« Last Edit: October 06, 2018, 08:15:44 AM by 【M】【A】【L】【I】【K】 【Z】【E】【E】 »


Thanks given by:


October 05, 2018, 09:26:19 AM
Reply #1
  • Team SSX
  • Legend Member
  • ***
  • Thank You: 2724
  • Reputation: 737
  • Activity:
    100%
  • Country: np
  • Posts: 1814
  • Topics: 1050
  • Join Date: Jul 2016
  • Love Forever !!
 :wow:               :bravo:               :hats:             :woohoo:                 :claps:   

Tags:
 

Related Topics





Back to top