+ ShareSpark.net »  :::: Bollywood Zone » Indian PC Videos
|- ABCD 2 (2015) Bollywood Movie All Video Music Album 1080p Blu-ray x264 TrueHD ATMOS 7.1 By ~MaLiK ZE


Amazon Pantry Offer
  • ABCD 2 (2015) Bollywood Movie All Video Music Album 1080p Blu-ray x264 TrueHD ATMOS 7.1 By ~MaLiK ZE 5 1
Currently:  

ABCD 2 (2015) Bollywood Movie All Video Music Album 1080p Blu-ray x264 TrueHD ATMOS 7.1 By ~MaLiK ZE

0 Members and 1 Guest are viewing this topic.

October 05, 2018, 09:34:54 AM
ABCD 2 (2015) Bollywood Movie All Video Music Album 1080p Blu-ray x264 TrueHD ATMOS 7.1 By ~MaLiK ZEE~


~♥ BollyWooD MoviE ♥~
(ABCD 2 2015)

Quote

Specs ♪♫
General
Format                      : Matroska
Format version              : Version 4 / Version 2
File size                   : 5.59 GB
Overall bit rate mode       : Variable
Overall bit rate            : 12.3 Mb/s
Encoded date                : UTC 2018-10-03 06:45:07
Writing application         : mkvmerge v25.0.0 ('Prog Noir') 64-bit
Writing library             : libebml v1.3.6 + libmatroska v1.4.9

♪ Video ♪
ID                          : 1
Format                      : AVC
Format/Info                 : Advanced Video Codec
Format profile              : High [email protected]
Format settings             : CABAC / 4 Ref Frames
Format settings, CABAC      : Yes
Format settings, ReFrames   : 4 frames
Codec ID                    : V_MPEG4/ISO/AVC
Bit rate                    : 5 565 kb/s
Width                       : 1 920 pixels
Height                      : 816 pixels
Display aspect ratio        : 2.35:1
Frame rate mode             : Variable
Frame rate                  : 23.976 (23976/1000) FPS
Color space                 : YUV
Chroma subsampling          : 4:2:0
Bit depth                   : 10 bits
Scan type                   : Progressive
Bits/(Pixel*Frame)          : 0.148
Stream size                 : 805 MiB (45%)
Language                    : English
Default                     : Yes
Forced                      : No
Color range                 : Limited
Color primaries             : BT.709
Transfer characteristics    : BT.709
Matrix coefficients         : BT.709

♫ Audio ♫

Audio #1
ID                          : 2
Format                      : TrueHD
Format profile              : TrueHD+Atmos / TrueHD
Codec ID                    : A_TRUEHD
Duration                    : 20 min 13 s
Bit rate mode               : Variable
Bit rate                    : 6 015 kb/s
Maximum bit rate            : 7 911 kb/s
Channel(s)                  : Object Based / 8 channels
Channel positions           : Object Based / Front: L C R, Side: L R, Back: L R, LFE
Sampling rate               :  / 48.0 kHz
Frame rate                  : 1 200.000 FPS (40 SPF)
Compression mode            : Lossless
Stream size                 : 870 MiB (49%)
Title                       : By~MaLiK ZEE~ 1
Language                    : Hindi
Default                     : Yes
Forced                      : No

Audio #2
ID                          : 5
Format                      : AC-3
Format/Info                 : Audio Coding 3
Codec ID                    : A_AC3
Bit rate mode               : Constant
Bit rate                    : 640 kb/s
Channel(s)                  : 6 channels
Channel positions           : Front: L C R, Side: L R, LFE
Sampling rate               : 48.0 kHz
Frame rate                  : 31.250 FPS (1536 SPF)
Bit depth                   : 16 bits
Compression mode            : Lossy
Delay relative to video     : 24 ms
Stream size                 : 92.5 MiB (5%)
Title                       : By~MaLiK ZEE~ 2
Language                    : Hindi
Service kind                : Complete Main
Default                     : No
Forced                      : No

English & Chinese Subtitles : Yes
Chapters : Yes

Ripped By ~MaLiK ZEE~

 :ss:


































 :download:

Google Drive

Quote
01-Abcd 2 Dance Collections [By ~MaLiK ZEE~]

02-Chunar [By ~MaLiK ZEE~]

03-Happy Hour [By ~MaLiK ZEE~]

04-Sun Saathiya [By ~MaLiK ZEE~]

05-Bezubaan Phir Se [By ~MaLiK ZEE~]

06-Naach Meri Jaan [By ~MaLiK ZEE~]

07-Tatto [By ~MaLiK ZEE~]

08-Hold My Hand [By ~MaLiK ZEE~]

09-Hey Ganraya [By ~MaLiK ZEE~]

10-Ek Tera Naam [By ~MaLiK ZEE~]

11-Vande Matram End Roll [By ~MaLiK ZEE~]

12-Chunar End Roll [By ~MaLiK ZEE~]








Share this topic on FacebookShare this topic on GoogleShare this topic on MySpaceShare this topic on TwitterShare this topic on Yahoo

« Last Edit: October 05, 2018, 10:39:29 AM by 【M】【A】【L】【I】【K】 【Z】【E】【E】 »


Thanks given by:


Tags:
 

Related Topics





Back to top