+ ShareSpark.net »  :::: Bollywood Zone » Indian PC Videos
|- Mujhse Shaadi Karogi (2002) Bollywood Movie All Video Music Album 1080p Blu-ray x264 DTS-HDMA 5.1 By


Mastercard 10% Off

Mujhse Shaadi Karogi (2002) Bollywood Movie All Video Music Album 1080p Blu-ray x264 DTS-HDMA 5.1 By

0 Members and 1 Guest are viewing this topic.

October 12, 2018, 03:24:32 AM
Mujhse Shaadi Karogi (2002) Bollywood Movie All Video Music Album 1080p Blu-ray x264 DTS-HDMA 5.1 By ~MaLiK ZEE~


~♥ BollyWooD MoviE ♥~
(Mujhse Shaadi Karogi 2002)

Quote

Specs ♪♫
General
Format                      : Matroska
Format version              : Version 4 / Version 2
File size                   : 4.12 GB
Duration                    : 4 min 24 s
Overall bit rate            : 25.9 Mb/s
Encoded date                : UTC 2018-10-10 03:06:31
Writing application         : mkvmerge v25.0.0 ('Prog Noir') 64-bit
Writing library             : libebml v1.3.6 + libmatroska v1.4.9


♪ Video ♪
ID                          : 1
Format                      : AVC
Format/Info                 : Advanced Video Codec
Format profile              : [email protected]
Format settings             : CABAC / 5 Ref Frames
Format settings, CABAC      : Yes
Format settings, ReFrames   : 5 frames
Codec ID                    : V_MPEG4/ISO/AVC
Bit rate                    : 21.8 Mb/s
Width                       : 1 920 pixels
Height                      : 818 pixels
Display aspect ratio        : 2.35:1
Frame rate mode             : Constant
Frame rate                  : 24.000 FPS
Color space                 : YUV
Chroma subsampling          : 4:2:0
Bit depth                   : 8 bits
Scan type                   : Progressive
Bits/(Pixel*Frame)          : 0.578
Stream size                 : 686 MiB (84%)
Language                    : English
Default                     : Yes
Forced                      : No
Color range                 : Limited
Color primaries             : BT.709
Transfer characteristics    : BT.709
Matrix coefficients         : BT.709

♫ Audio ♫

Audio #1
ID                          : 2
Format                      : DTS
Format/Info                 : Digital Theater Systems
Format profile              : MA / Core
Codec ID                    : A_DTS
Duration                    : 4 min 24 s
Bit rate mode               : Variable / Constant
Bit rate                    : 3 507 kb/s / 1 509 kb/s
Channel(s)                  : 6 channels
Channel positions           : Front: L C R, Side: L R, LFE
Sampling rate               : 48.0 kHz
Frame rate                  : 93.750 FPS (512 SPF)
Bit depth                   : 16 bits
Compression mode            : Lossless / Lossy
Delay relative to video     : -4 ms
Stream size                 : 111 MiB (14%)
Title                       : By ~MaLiK ZEE~ 1
Language                    : Hindi
Default                     : Yes
Forced                      : No

Audio #2
ID                          : 3
Format                      : AC-3
Format/Info                 : Audio Coding 3
Codec ID                    : A_AC3
Bit rate mode               : Constant
Bit rate                    : 640 kb/s
Channel(s)                  : 6 channels
Channel positions           : Front: L C R, Side: L R, LFE
Sampling rate               : 48.0 kHz
Frame rate                  : 31.250 FPS (1536 SPF)
Bit depth                   : 16 bits
Compression mode            : Lossy
Delay relative to video     : 7 ms
Stream size                 : 20.2 MiB (2%)
Title                       : By ~MaLiK ZEE~ 2
Language                    : Hindi
Service kind                : Complete Main
Default                     : No
Forced                      : No

English Subtitles : Yes
Chapters : No

Ripped By ~MaLiK ZEE~

 :ss:























 :download:

Google Drive

Quote
01-Jeene Ke Hain Chaar Din [~MaLiK ZEE~]

02-Mujhse Shaadi Karogi [~MaLiK ZEE~]

03-Kaanta Lagaa [~MaLiK ZEE~]

04-Rab Kare [~MaLiK ZEE~]

05-Aaja Soniye [~MaLiK ZEE~]

06-Laal Dupatta [~MaLiK ZEE~]

07-Mujhse Shaadi Karogi End Roll [~MaLiK ZEE~]





Share this topic on FacebookShare this topic on GoogleShare this topic on MySpaceShare this topic on TwitterShare this topic on Yahoo



Thanks given by:


Tags:
 

Related Topics





Back to top