+ ShareSpark.net »  :::: Bollywood Zone » Indian PC Videos
|- Raees (2017) (MUSIC VIDEO ALBUM) Untouched - BD50 AVC DOLBY ATMOS TrueHD 7.1 ESuBS By ~MaLiK ZEE~


TV and Appliances

Raees (2017) (MUSIC VIDEO ALBUM) Untouched - BD50 AVC DOLBY ATMOS TrueHD 7.1 ESuBS By ~MaLiK ZEE~

0 Members and 1 Guest are viewing this topic.

October 12, 2018, 09:58:25 AM
Raees (2017) (MUSIC VIDEO ALBUM) Untouched - BD50 AVC DOLBY ATMOS TrueHD 7.1 ESuBS By ~MaLiK ZEE~


~♥ BollyWooD MoviE ♥~
(Raees 2017)

Quote

Specs ♪♫
General
ID                          : 1 (0x1)
Format                      : BDAV
Format                      : M2ts
Format/Info                 : Blu-ray Video
File size                   : 6.20 GB
Overall bit rate mode       : Variable
Overall bit rate            : 44.3 Mb/s
Maximum Overall bit rate    : 35.5 Mb/s

♪ Video ♪
ID                          : 4113 (0x1011)
Menu ID                     : 1 (0x1)
Format                      : AVC
Format/Info                 : Advanced Video Codec
Format profile              : [email protected]
Format settings             : CABAC / 4 Ref Frames
Format settings, CABAC      : Yes
Format settings, ReFrames   : 4 frames
Codec ID                    : 27
Bit rate mode               : Constant
Bit rate                    : 41.2 Mb/s
Nominal bit rate            : 34.0 Mb/s
Width                       : 1 920 pixels
Height                      : 1 080 pixels
Display aspect ratio        : 16:9
Frame rate                  : 24.000 FPS
Standard                    : NTSC
Color space                 : YUV
Chroma subsampling          : 4:2:0
Bit depth                   : 8 bits
Scan type                   : Progressive
Bits/(Pixel*Frame)          : 0.829
Stream size                 : 578 MiB (93%)
Color range                 : Limited
Color primaries             : BT.709
Transfer characteristics    : BT.709
Matrix coefficients         : BT.709

♫ Audio ♫
Audio #1
ID                          : 4352 (0x1100)
Menu ID                     : 1 (0x1)
Format                      : TrueHD / AC-3
Format profile              : TrueHD+Atmos / TrueHD / AC-3
Muxing mode                 : Stream extension
Codec ID                    : 131
Bit rate mode               : Variable / Constant
Bit rate                    : 640 kb/s
Maximum bit rate            : 7 035 kb/s
Channel(s)                  : Object Based / 8 channels / 6 channels
Channel positions           : Object Based / Front: L C R, Side: L R, Back: L R, LFE / Front: L C R, Side: L R, LFE
Sampling rate               :  / 48.0 kHz / 48.0 kHz
Frame rate                  : 31.250 FPS (1536 SPF)
Bit depth                   : 16 bits
Delay relative to video     : -41 ms
Stream size                 : 9.00 MiB (1%)
Service kind                : Complete Main

Audio #2
ID                          : 4353 (0x1101)
Menu ID                     : 1 (0x1)
Format                      : AC-3
Format/Info                 : Audio Coding 3
Codec ID                    : 129
Bit rate mode               : Constant
Bit rate                    : 640 kb/s
Channel(s)                  : 6 channels
Channel positions           : Front: L C R, Side: L R, LFE
Sampling rate               : 48.0 kHz
Frame rate                  : 31.250 FPS (1536 SPF)
Bit depth                   : 16 bits
Compression mode            : Lossy
Delay relative to video     : -41 ms
Stream size                 : 9.00 MiB (1%)
Service kind                : Complete Main


English Subtitles : Yes
Chapters : No

Ripped By ~MaLiK ZEE~

 :ss:


















 :download:

Google Drive

Quote
01-Dhingana [By~MaLiK ZEE~]

02-Ghammar Ghammar [By~MaLiK ZEE~]

03-Udi Udi Jaye [By~MaLiK ZEE~]

04-Laila Main Laila [By~MaLiK ZEE~]

05-Zaalima [By~MaLiK ZEE~]

06-Enu Naam Che Raees [By~MaLiK ZEE~]

07-Saanson Ke [By~MaLiK ZEE~]

08-Saanson Ke End Roll [By~MaLiK ZEE~]








Share this topic on FacebookShare this topic on GoogleShare this topic on MySpaceShare this topic on TwitterShare this topic on Yahoo



Thanks given by:


7 hours ago
Reply #1
  • Semi Newbie
  • **
  • Thank You: 0
  • Reputation: 0
  • Activity:
    1.6%
  • Posts: 12
  • Topics: 0
  • Join Date: Mar 2013
  • ShareSpark Member

Tags:
 

Related Topics





Back to top